<?xml version="1.0" standalone="no"?>
<!DOCTYPE svg PUBLIC "-//W3C//DTD SVG 1.1//EN" "http://www.w3.org/Graphics/SVG/1.1/DTD/svg11.dtd" >
<svg xmlns="http://www.w3.org/2000/svg" xmlns:xlink="http://www.w3.org/1999/xlink" version="1.1">
<metadata>
Created by FontForge 20190801 at Tue Apr 11 18:23:55 2023
 By root
Copyright Brandon Kleeman 2020
</metadata>
<defs>
<font id="RetroPix" horiz-adv-x="908" >
  <font-face 
    font-family="RetroPix"
    font-weight="400"
    font-stretch="normal"
    units-per-em="1000"
    panose-1="0 0 4 0 0 0 0 0 0 0"
    ascent="800"
    descent="-200"
    x-height="1000"
    cap-height="1500"
    bbox="0 -500 1167 1667"
    underline-thickness="100"
    underline-position="150"
    unicode-range="U+0020-201D"
  />
<missing-glyph horiz-adv-x="1320" 
d="M1085 50h-1016l508 681zM50 69v1362l508 -681zM1104 69l-508 681l508 681v-1362zM577 769l-508 681h1016zM0 0h1154v1500h-1154v-1500z" />
    <glyph glyph-name=".notdef" horiz-adv-x="1320" 
d="M1085 50h-1016l508 681zM50 69v1362l508 -681zM1104 69l-508 681l508 681v-1362zM577 769l-508 681h1016zM0 0h1154v1500h-1154v-1500z" />
    <glyph glyph-name="space" unicode=" " horiz-adv-x="333" 
 />
    <glyph glyph-name="exclam" unicode="!" horiz-adv-x="408" 
d="M0 0h167v167h-167v-167zM0 500h167v1000h-167v-1000z" />
    <glyph glyph-name="quotedbl" unicode="&#x22;" horiz-adv-x="741" 
d="M0 1167h167v500h-167v-500zM333 1167h167v500h-167v-500z" />
    <glyph glyph-name="numbersign" unicode="#" horiz-adv-x="1074" 
d="M500 667h-167v166h167v-166zM167 167h166v333h167v-333h167v333h166v167h-166v166h166v167h-166v333h-167v-333h-167v333h-166v-333h-167v-167h167v-166h-167v-167h167v-333z" />
    <glyph glyph-name="dollar" unicode="$" horiz-adv-x="1074" 
d="M0 167h167v166h-167v-166zM667 167h166v500h-166v-500zM0 1000h167v333h-167v-333zM667 1167h166v166h-166v-166zM333 -167h167v167h167v167h-167v500h167v166h-167v500h167v167h-167v167h-167v-167h-166v-167h166v-333h-166v-167h166v-666h-166v-167h166v-167z" />
    <glyph glyph-name="percent" unicode="%" 
d="M0 0h167v333h-167v-333zM500 167h167v166h-167v-166zM167 333h166v334h167v500h-167v-334h-166v-500zM0 1167h167v166h-167v-166zM500 1167h167v333h-167v-333z" />
    <glyph glyph-name="ampersand" unicode="&#x26;" horiz-adv-x="1074" 
d="M167 0h333v167h-333v-167zM667 0h166v167h-166v-167zM333 500h167v167h-167v-167zM500 167h167v166h166v334h-166v-167h-167v-333zM0 167h167v500h166v166h167v167h-333v-167h-167v-666zM0 1000h167v333h-167v-333zM500 1000h167v333h-167v-333zM167 1333h333v167h-333
v-167z" />
    <glyph glyph-name="quotesingle" unicode="'" horiz-adv-x="408" 
d="M0 1167h167v500h-167v-500z" />
    <glyph glyph-name="parenleft" unicode="(" horiz-adv-x="741" 
d="M333 0h167v167h-167v-167zM167 167h166v166h-166v-166zM0 333h167v834h-167v-834zM167 1167h166v166h-166v-166zM333 1333h167v167h-167v-167z" />
    <glyph glyph-name="parenright" unicode=")" horiz-adv-x="741" 
d="M0 0h167v167h-167v-167zM167 167h166v166h-166v-166zM333 333h167v834h-167v-834zM167 1167h166v166h-166v-166zM0 1333h167v167h-167v-167z" />
    <glyph glyph-name="asterisk" unicode="*" horiz-adv-x="741" 
d="M167 1167h166v166h-166v-166zM0 1333h167v167h-167v-167zM333 1333h167v167h-167v-167zM167 1500h166v167h-166v-167z" />
    <glyph glyph-name="plus" unicode="+" horiz-adv-x="1074" 
d="M333 333h167v334h333v166h-333v334h-167v-334h-333v-166h333v-334z" />
    <glyph glyph-name="comma" unicode="," horiz-adv-x="408" 
d="M0 -167h167v334h-167v-334z" />
    <glyph glyph-name="hyphen" unicode="-" 
d="M0 667h667v166h-667v-166z" />
    <glyph glyph-name="period" unicode="." horiz-adv-x="408" 
d="M0 0h167v167h-167v-167z" />
    <glyph glyph-name="slash" unicode="/" 
d="M0 0h167v333h-167v-333zM167 333h166v334h167v500h-167v-334h-166v-500zM500 1167h167v333h-167v-333z" />
    <glyph glyph-name="zero" unicode="0" 
d="M167 0h333v167h-333v-167zM0 167h167v1166h-167v-1166zM500 167h167v1166h-167v-1166zM167 1333h333v167h-333v-167z" />
    <glyph glyph-name="one" unicode="1" horiz-adv-x="574" 
d="M167 0h166v1500h-166v-167h-167v-166h167v-1167z" />
    <glyph glyph-name="two" unicode="2" 
d="M0 0h667v167h-500v333h-167v-500zM167 500h166v167h-166v-167zM333 667h167v166h-167v-166zM0 1167h167v166h-167v-166zM500 833h167v500h-167v-500zM167 1333h333v167h-333v-167z" />
    <glyph glyph-name="three" unicode="3" 
d="M167 0h333v167h-333v-167zM0 167h167v333h-167v-333zM500 167h167v666h-167v-666zM333 833h167v167h-167v-167zM0 1000h167v333h-167v-333zM500 1000h167v333h-167v-333zM167 1333h333v167h-333v-167z" />
    <glyph glyph-name="four" unicode="4" 
d="M333 0h167v833h167v167h-167v500h-167v-500h-166v500h-167v-667h333v-833z" />
    <glyph glyph-name="five" unicode="5" 
d="M167 0h333v167h-333v-167zM0 167h167v166h-167v-166zM500 167h167v666h-167v-666zM0 833h500v167h-333v333h500v167h-667v-667z" />
    <glyph glyph-name="six" unicode="6" 
d="M167 0h333v167h-333v-167zM500 167h167v666h-167v-666zM0 167h167v666h333v167h-333v333h-167v-1166zM500 1167h167v166h-167v-166zM167 1333h333v167h-333v-167z" />
    <glyph glyph-name="seven" unicode="7" 
d="M167 0h166v667h-166v-667zM333 667h167v333h-167v-333zM500 1000h167v500h-667v-333h167v166h333v-333z" />
    <glyph glyph-name="eight" unicode="8" 
d="M167 0h333v167h-333v-167zM0 167h167v666h-167v-666zM500 167h167v666h-167v-666zM167 833h333v167h-333v-167zM0 1000h167v333h-167v-333zM500 1000h167v333h-167v-333zM167 1333h333v167h-333v-167z" />
    <glyph glyph-name="nine" unicode="9" 
d="M0 1000h167v333h-167v-333zM500 0h167v1333h-167v-333h-333v-167h333v-833zM167 1333h333v167h-333v-167z" />
    <glyph glyph-name="colon" unicode=":" horiz-adv-x="574" 
d="M333 333h166v167h-166v-167zM333 1000h166v167h-166v-167z" />
    <glyph glyph-name="semicolon" unicode=";" horiz-adv-x="574" 
d="M0 0h167v167h-167v-167zM167 167h166v333h-166v-333zM167 833h166v167h-166v-167z" />
    <glyph glyph-name="less" unicode="&#x3c;" 
d="M333 333h334v167h-334v-167zM167 500h166v167h-166v-167zM0 667h167v166h-167v-166zM167 833h166v167h-166v-167zM333 1000h334v167h-334v-167z" />
    <glyph glyph-name="equal" unicode="=" 
d="M0 500h667v167h-667v-167zM0 833h667v167h-667v-167z" />
    <glyph glyph-name="greater" unicode="&#x3e;" 
d="M0 333h333v167h-333v-167zM333 500h167v167h-167v-167zM500 667h167v166h-167v-166zM333 833h167v167h-167v-167zM0 1000h333v167h-333v-167z" />
    <glyph glyph-name="question" unicode="?" 
d="M167 0h166v167h-166v-167zM167 333h166v334h-166v-334zM333 667h167v166h-167v-166zM0 1167h167v166h-167v-166zM500 833h167v500h-167v-500zM167 1333h333v167h-333v-167z" />
    <glyph glyph-name="at" unicode="@" horiz-adv-x="1074" 
d="M167 -167h666v167h-666v-167zM667 333h-167v167h167v-167zM0 0h167v833h-167v-833zM333 167h500v666h-166v-166h-334v-500zM167 833h500v167h-500v-167z" />
    <glyph glyph-name="A" unicode="A" horiz-adv-x="1074" 
d="M0 0h167v833h500v-833h166v1333h-166v-333h-500v333h-167v-1333zM167 1333h500v167h-500v-167z" />
    <glyph glyph-name="B" unicode="B" horiz-adv-x="1074" 
d="M667 167h166v500h-166v-500zM500 667h167v166h-167v-166zM500 1000h167v333h-167v-333zM0 0h667v167h-500v666h333v167h-333v333h333v167h-500v-1500z" />
    <glyph glyph-name="C" unicode="C" horiz-adv-x="1074" 
d="M333 0h334v167h-334v-167zM167 167h166v166h-166v-166zM667 167h166v166h-166v-166zM0 333h167v834h-167v-834zM167 1167h166v166h-166v-166zM667 1167h166v166h-166v-166zM333 1333h334v167h-334v-167z" />
    <glyph glyph-name="D" unicode="D" horiz-adv-x="1074" 
d="M500 167h167v166h-167v-166zM667 333h166v834h-166v-834zM500 1167h167v166h-167v-166zM0 0h500v167h-333v1166h333v167h-500v-1500z" />
    <glyph glyph-name="E" unicode="E" horiz-adv-x="1074" 
d="M0 0h833v167h-666v666h333v167h-333v333h666v167h-833v-1500z" />
    <glyph glyph-name="F" unicode="F" horiz-adv-x="1074" 
d="M0 0h167v833h333v167h-333v333h666v167h-833v-1500z" />
    <glyph glyph-name="G" unicode="G" horiz-adv-x="1241" 
d="M333 0h334v167h-334v-167zM167 167h166v166h-166v-166zM667 167h166v166h-166v-166zM833 333h167v334h-500v-167h333v-167zM0 333h167v834h-167v-834zM833 833h167v334h-167v-334zM167 1167h166v166h-166v-166zM667 1167h166v166h-166v-166zM333 1333h334v167h-334v-167z
" />
    <glyph glyph-name="H" unicode="H" horiz-adv-x="1074" 
d="M0 0h167v833h500v-833h166v1500h-166v-500h-500v500h-167v-1500z" />
    <glyph glyph-name="I" unicode="I" horiz-adv-x="408" 
d="M0 0h167v1500h-167v-1500z" />
    <glyph glyph-name="J" unicode="J" horiz-adv-x="1074" 
d="M167 0h333v167h-333v-167zM0 167h167v166h-167v-166zM500 167h167v1166h166v167h-666v-167h333v-1166z" />
    <glyph glyph-name="K" unicode="K" horiz-adv-x="1074" 
d="M667 0h166v500h-166v-500zM500 500h167v333h-167v-333zM500 1000h167v167h-167v-167zM0 0h167v833h333v167h-333v500h-167v-1500zM667 1167h166v333h-166v-333z" />
    <glyph glyph-name="L" unicode="L" 
d="M0 0h667v167h-500v1333h-167v-1500z" />
    <glyph glyph-name="M" unicode="M" horiz-adv-x="1074" 
d="M333 833h167v334h-167v-334zM0 0h167v1167h166v166h-166v167h-167v-1500zM667 0h166v1500h-166v-167h-167v-166h167v-1167z" />
    <glyph glyph-name="N" unicode="N" horiz-adv-x="1074" 
d="M333 667h167v333h-167v-333zM0 0h167v1000h166v167h-166v333h-167v-1500zM667 0h166v1500h-166v-833h-167v-334h167v-333z" />
    <glyph glyph-name="O" unicode="O" horiz-adv-x="1241" 
d="M333 0h334v167h-334v-167zM167 167h166v166h-166v-166zM667 167h166v166h-166v-166zM0 333h167v834h-167v-834zM833 333h167v834h-167v-834zM167 1167h166v166h-166v-166zM667 1167h166v166h-166v-166zM333 1333h334v167h-334v-167z" />
    <glyph glyph-name="P" unicode="P" horiz-adv-x="1074" 
d="M667 1000h166v333h-166v-333zM0 0h167v833h500v167h-500v333h500v167h-667v-1500z" />
    <glyph glyph-name="Q" unicode="Q" horiz-adv-x="1241" 
d="M333 0h334v167h-334v-167zM833 0h167v167h-167v-167zM167 167h166v166h-166v-166zM667 167h166v166h-166v-166zM500 333h167v167h-167v-167zM0 333h167v834h-167v-834zM833 333h167v834h-167v-834zM167 1167h166v166h-166v-166zM667 1167h166v166h-166v-166zM333 1333
h334v167h-334v-167z" />
    <glyph glyph-name="R" unicode="R" horiz-adv-x="1074" 
d="M667 0h166v333h-166v-333zM500 333h167v334h-167v-334zM667 1000h166v333h-166v-333zM0 0h167v833h166v-166h167v166h167v167h-500v333h500v167h-667v-1500z" />
    <glyph glyph-name="S" unicode="S" horiz-adv-x="1074" 
d="M167 0h500v167h-500v-167zM0 167h167v166h-167v-166zM667 167h166v500h-166v-500zM500 667h167v166h-167v-166zM167 833h333v167h-333v-167zM0 1000h167v333h-167v-333zM667 1167h166v166h-166v-166zM167 1333h500v167h-500v-167z" />
    <glyph glyph-name="T" unicode="T" horiz-adv-x="1074" 
d="M333 0h167v1333h333v167h-833v-167h333v-1333z" />
    <glyph glyph-name="U" unicode="U" horiz-adv-x="1241" 
d="M333 0h334v167h-334v-167zM167 167h166v166h-166v-166zM667 167h166v166h-166v-166zM0 333h167v1167h-167v-1167zM833 333h167v1167h-167v-1167z" />
    <glyph glyph-name="V" unicode="V" horiz-adv-x="1074" 
d="M333 0h167v333h167v500h-167v-333h-167v333h-166v-500h166v-333zM0 833h167v667h-167v-667zM667 833h166v667h-166v-667z" />
    <glyph glyph-name="W" unicode="W" horiz-adv-x="1074" 
d="M167 0h166v333h167v-333h167v500h-167v500h-167v-500h-166v-500zM0 500h167v1000h-167v-1000zM667 500h166v1000h-166v-1000z" />
    <glyph glyph-name="X" unicode="X" horiz-adv-x="1074" 
d="M0 0h167v333h-167v-333zM667 0h166v333h-166v-333zM167 333h166v334h-166v-334zM500 333h167v334h-167v-334zM333 667h167v333h-167v-333zM167 1000h166v167h-166v-167zM500 1000h167v167h-167v-167zM0 1167h167v333h-167v-333zM667 1167h166v333h-166v-333z" />
    <glyph glyph-name="Y" unicode="Y" horiz-adv-x="1074" 
d="M333 0h167v833h167v167h-500v-167h166v-833zM0 1000h167v500h-167v-500zM667 1000h166v500h-166v-500z" />
    <glyph glyph-name="Z" unicode="Z" horiz-adv-x="1074" 
d="M0 0h833v167h-666v166h-167v-333zM167 333h166v334h-166v-334zM333 667h167v166h-167v-166zM500 833h167v334h-167v-334zM667 1167h166v333h-833v-167h667v-166z" />
    <glyph glyph-name="bracketleft" unicode="[" horiz-adv-x="741" 
d="M0 0h500v167h-333v1166h333v167h-500v-1500z" />
    <glyph glyph-name="backslash" unicode="\" 
d="M500 0h167v333h-167v-333zM333 333h167v500h-167v334h-166v-500h166v-334zM0 1167h167v333h-167v-333z" />
    <glyph glyph-name="bracketright" unicode="]" horiz-adv-x="741" 
d="M0 0h500v1500h-500v-167h333v-1166h-333v-167z" />
    <glyph glyph-name="asciicircum" unicode="^" horiz-adv-x="1074" 
d="M0 833h167v334h-167v-334zM667 833h166v334h-166v-334zM167 1167h166v166h-166v-166zM500 1167h167v166h-167v-166zM333 1333h167v167h-167v-167z" />
    <glyph glyph-name="underscore" unicode="_" 
d="M0 -167h667v167h-667v-167z" />
    <glyph glyph-name="grave" unicode="`" horiz-adv-x="574" 
d="M167 1333h166v167h-166v-167zM0 1500h167v167h-167v-167z" />
    <glyph glyph-name="a" unicode="a" 
d="M167 0h333v167h-333v-167zM0 167h167v166h166v167h-333v-333zM0 667h167v166h-167v-166zM500 167h167v666h-167v-166h-167v-167h167v-333zM167 833h333v167h-333v-167z" />
    <glyph glyph-name="b" unicode="b" 
d="M500 167h167v666h-167v-666zM0 0h500v167h-333v666h333v167h-333v500h-167v-1500z" />
    <glyph glyph-name="c" unicode="c" 
d="M167 0h333v167h-333v-167zM500 167h167v166h-167v-166zM0 167h167v666h-167v-666zM500 667h167v166h-167v-166zM167 833h333v167h-333v-167z" />
    <glyph glyph-name="d" unicode="d" 
d="M0 167h167v666h-167v-666zM167 0h500v1500h-167v-500h-333v-167h333v-666h-333v-167z" />
    <glyph glyph-name="e" unicode="e" 
d="M167 0h333v167h-333v-167zM500 167h167v166h-167v-166zM0 167h167v333h500v333h-167v-166h-333v166h-167v-666zM167 833h333v167h-333v-167z" />
    <glyph glyph-name="f" unicode="f" 
d="M167 0h166v833h167v167h-167v333h-166v-333h-167v-167h167v-833zM500 1167h167v166h-167v-166zM333 1333h167v167h-167v-167z" />
    <glyph glyph-name="g" unicode="g" 
d="M167 -500h333v167h-333v-167zM0 -333h167v166h-167v-166zM500 -333h167v1000h-167v-500h-333v-167h333v-333zM0 167h167v666h-167v-666zM167 833h333v167h-333v-167z" />
    <glyph glyph-name="h" unicode="h" 
d="M500 0h167v833h-167v-833zM0 0h167v833h333v167h-333v500h-167v-1500z" />
    <glyph glyph-name="i" unicode="i" horiz-adv-x="408" 
d="M0 0h167v1000h-167v-1000zM0 1167h167v166h-167v-166z" />
    <glyph glyph-name="j" unicode="j" 
d="M167 -500h333v167h-333v-167zM0 -333h167v166h-167v-166zM500 -333h167v1333h-167v-1333zM500 1167h167v166h-167v-166z" />
    <glyph glyph-name="k" unicode="k" 
d="M500 0h167v333h-167v-333zM333 833h167v167h-167v-167zM500 1000h167v167h-167v-167zM0 0h167v500h166v-167h167v334h-167v166h-166v667h-167v-1500z" />
    <glyph glyph-name="l" unicode="l" horiz-adv-x="408" 
d="M0 0h167v1500h-167v-1500z" />
    <glyph glyph-name="m" unicode="m" horiz-adv-x="1408" 
d="M500 167h167v666h-167v-666zM1000 0h167v833h-167v-833zM0 0h167v833h333v167h-500v-1000zM667 833h333v167h-333v-167z" />
    <glyph glyph-name="n" unicode="n" 
d="M500 0h167v833h-167v-833zM0 0h167v833h333v167h-500v-1000z" />
    <glyph glyph-name="o" unicode="o" 
d="M167 0h333v167h-333v-167zM0 167h167v666h-167v-666zM500 167h167v666h-167v-666zM167 833h333v167h-333v-167z" />
    <glyph glyph-name="p" unicode="p" 
d="M500 167h167v666h-167v-666zM0 -500h167v500h333v167h-333v666h333v167h-500v-1500z" />
    <glyph glyph-name="q" unicode="q" 
d="M0 167h167v666h-167v-666zM500 -500h167v1333h-167v-666h-333v-167h333v-500zM167 833h333v167h-333v-167z" />
    <glyph glyph-name="r" unicode="r" 
d="M0 0h167v667h166v166h-166v167h-167v-1000zM333 833h334v167h-334v-167z" />
    <glyph glyph-name="s" unicode="s" 
d="M167 0h333v167h-333v-167zM0 167h167v166h-167v-166zM500 167h167v333h-334v-167h167v-166zM0 500h333v167h-166v166h-167v-333zM500 667h167v166h-167v-166zM167 833h333v167h-333v-167z" />
    <glyph glyph-name="t" unicode="t" 
d="M333 0h334v167h-334v-167zM167 167h166v666h334v167h-334v500h-166v-500h-167v-167h167v-666z" />
    <glyph glyph-name="u" unicode="u" 
d="M0 167h167v833h-167v-833zM167 0h500v1000h-167v-833h-333v-167z" />
    <glyph glyph-name="v" unicode="v" horiz-adv-x="1074" 
d="M333 0h167v333h-167v-333zM167 333h166v334h-166v-334zM500 333h167v334h-167v-334zM0 667h167v333h-167v-333zM667 667h166v333h-166v-333z" />
    <glyph glyph-name="w" unicode="w" horiz-adv-x="1074" 
d="M167 0h166v333h-166v-333zM500 0h167v333h-167v-333zM333 333h167v334h-167v-334zM0 333h167v667h-167v-667zM667 333h166v667h-166v-667z" />
    <glyph glyph-name="x" unicode="x" 
d="M0 0h167v333h-167v-333zM500 0h167v333h-167v-333zM167 333h333v334h-333v-334zM0 667h167v333h-167v-333zM500 667h167v333h-167v-333z" />
    <glyph glyph-name="y" unicode="y" 
d="M167 -500h333v167h-333v-167zM0 -333h167v166h-167v-166zM0 167h167v833h-167v-833zM500 -333h167v1333h-167v-833h-333v-167h333v-333z" />
    <glyph glyph-name="z" unicode="z" 
d="M0 0h667v167h-500v166h-167v-333zM167 333h166v167h-166v-167zM333 500h167v167h-167v-167zM500 667h167v333h-667v-167h500v-166z" />
    <glyph glyph-name="braceleft" unicode="{" 
d="M333 0h334v167h-334v-167zM167 167h166v500h-166v-500zM0 667h167v166h-167v-166zM167 833h166v500h-166v-500zM333 1333h334v167h-334v-167z" />
    <glyph glyph-name="bar" unicode="|" horiz-adv-x="408" 
d="M0 0h167v1500h-167v-1500z" />
    <glyph glyph-name="braceright" unicode="}" 
d="M0 0h333v167h-333v-167zM333 167h167v500h-167v-500zM500 667h167v166h-167v-166zM333 833h167v500h-167v-500zM0 1333h333v167h-333v-167z" />
    <glyph glyph-name="asciitilde" unicode="~" horiz-adv-x="1074" 
d="M500 500h167v167h-167v-167zM0 667h167v166h-167v-166zM333 667h167v166h-167v-166zM667 667h166v166h-166v-166zM167 833h166v167h-166v-167z" />
    <glyph glyph-name="quoteleft" unicode="&#x2018;" horiz-adv-x="574" 
d="M167 1167h166v166h-166v-166zM0 1333h167v334h-167v-334z" />
    <glyph glyph-name="quoteright" unicode="&#x2019;" horiz-adv-x="574" 
d="M167 1167h166v333h-166v-333zM0 1500h167v167h-167v-167z" />
    <glyph glyph-name="quotedblleft" unicode="&#x201c;" 
d="M167 1167h166v166h-166v-166zM500 1167h167v166h-167v-166zM0 1333h167v334h-167v-334zM333 1333h167v334h-167v-334z" />
    <glyph glyph-name="quotedblright" unicode="&#x201d;" 
d="M167 1167h166v333h-166v-333zM500 1167h167v333h-167v-333zM0 1500h167v167h-167v-167zM333 1500h167v167h-167v-167z" />
  </font>
</defs>
</svg>
